» » Coursera - Recommender Systems (University of Minnesota)

Coursera - Recommender Systems (University of Minnesota)

Coursera - Recommender Systems (University of Minnesota)

Coursera - Recommender Systems (University of Minnesota)
WEBRip | English | MP4 + PDF slides | 960 x 540 | AVC ~362 kbps | 25 fps
AAC | 128 Kbps | 48.0 KHz | 2 channels | Subs: English (.srt) | 17:05:56 | 1.98 GB
Genre: eLearning Video / Evaluation, Factorization, Collaboration
Master Recommender Systems. Learn to design, build, and evaluate recommender systems for commerce and content.


This Specialization covers all the fundamental techniques in recommender systems, from non-personalized and project-association recommenders through content-based and collaborative techniques. Designed to serve both the data mining expert and the data literate marketing professional, the courses offer interactive, spreadsheet-based exercises to master different algorithms along with an honors track where learners can go into greater depth using the LensKit open source toolkit. A Capstone Project brings together the course material with a realistic recommender design and analysis project.

also You can watch my other helpful:
https://rapu.world/search/?category_slug=&query=Coursera&language=&age=&author=ParRus&search=1

General
Complete name : 04_Video_6.4_-_Item-Item_Hybrids_and_Extensions_17-06.mp4
Format : MPEG-4
Format profile : Base Media
Codec ID : isom (isom/iso2/avc1/mp41)
File size : 60.6 MiB
Duration : 17 min 6 s
Overall bit rate : 496 kb/s
Writing application : Lavf55.10.100

Video
ID : 1
Format : AVC
Format/Info : Advanced Video Codec
Format profile : High@L3
Format settings : 4 Ref Frames
Format settings, CABAC : No
Format settings, RefFrames : 4 frames
Codec ID : avc1
Codec ID/Info : Advanced Video Coding
Duration : 17 min 6 s
Bit rate : 362 kb/s
Width : 960 pixels
Height : 540 pixels
Display aspect ratio : 16:9
Frame rate mode : Constant
Frame rate : 25.000 FPS
Color space : YUV
Chroma subsampling : 4:2:0
Bit depth : 8 bits
Scan type : Progressive
Bits/(Pixel*Frame) : 0.028
Stream size : 44.3 MiB (73%)
Writing library : x264 core 129 r2230 1cffe9f
Encoding settings : cabac=0 / ref=2 / deblock=1:0:0 / analyse=0x3:0x111 / me=hex / subme=6 / psy=1 / psy_rd=1.00:0.00 / mixed_ref=1 / me_range=16 / chroma_me=1 / trellis=1 / 8x8dct=1 / cqm=0 / deadzone=21,11 / fast_pskip=1 / chroma_qp_offset=-2 / threads=3 / lookahead_threads=1 / sliced_threads=0 / nr=0 / decimate=1 / interlaced=0 / bluray_compat=0 / constrained_intra=0 / bframes=3 / b_pyramid=2 / b_adapt=1 / b_bias=0 / direct=1 / weightb=1 / open_gop=0 / weightp=1 / keyint=30 / keyint_min=3 / scenecut=40 / intra_refresh=0 / rc_lookahead=30 / rc=crf / mbtree=1 / crf=28.0 / qcomp=0.60 / qpmin=10 / qpmax=51 / qpstep=4 / ip_ratio=1.40 / aq=1:1.00
Language : English

Audio
ID : 2
Format : AAC
Format/Info : Advanced Audio Codec
Format profile : LC
Codec ID : mp4a-40-2
Duration : 17 min 6 s
Duration_LastFrame : -9 ms
Bit rate mode : Constant
Bit rate : 128 kb/s
Channel(s) : 2 channels
Channel positions : Front: L R
Sampling rate : 48.0 kHz
Frame rate : 46.875 FPS (1024 SPF)
Compression mode : Lossy
Stream size : 15.7 MiB (26%)
Language : English
Default : Yes
Alternate group : 1

Screenshots






DOWNLOAD
(Buy premium account for maximum speed and resuming ability)